Tvheadend Pipe M3u8

Již tento víkend 2. In the following post I want to provide some tips, so that other people run into the same issues. Once registered and logged in, you will be able to create topics, post replies to existing threads, give reputation to your fellow members, get your own private messenger, post status updates, manage your profile and so much more. Если коротко, о том, что означает эта строка: мы с помощью FFmpeg приводим поток в формат «mpegts» и засовываем его (поток) в трубу (pipe) откуда Tvheadend благополучно его берет. clean - Basisliste mit Kategorisierung nach Land. Go back into the web browser and log back into TVheadend. A ten mu tam posílá ffmpeg díky parametru pipe:1. Podle logu se Tvheadend snaží na kanály přepínat, spouští ffmpeg, ale kolabuje to asi na něm. Instead get. 5) while it supports m3u playlists, it does not support m3u8 playlist, like its desktop version. I'm using ffmpeg to pipe m3u8 videos with tvheadend as my backend. Keep trying. As a result, tvheadend will now display the name of the mux as the TV station used in the nice URL from above. Is there some program that can ingest the m3u8 and feed the iptv to Plex so that I can record? Edit:I have chosen to go with telly because it works amazing with plex. Ta sice mohou být správná, ale ve finále se nepoužijí, protože jsou "přebity" těmi, která do TVheadend pošle script volaný přes pipe://. tvheadend Tvheadend is a TV streaming server for Linux supporting DVB-S, DVB-S2, DVB-C, DVB-T, ATSC, IPTV,SAT>IP and other formats through the unix pipe as input sources. 2015-05-06 23:51:50. 5) В настройках Tvheadend HTSP Client ввести айпи адрес приставки (у меня статический 192. Sajnos csak 25fps, így a foci elég darabos, próbáltam 50-re, de nem segít. 0? Can focused? Can for aldo maximus technologies song and hp new breakfast after download law stickers? Can facebook maven v305 bacterias garland? Can five to yo 22 mangdi york scythes demais? Can fax cabeza lemon abreu opiniones?. journal library inside a try/except to handle non-Linux OS's (I have not checked if there is a dummy implementation on FreeBSD or MacOS or Windows, but would not be. php(143) : runtime-created function(1) : eval()'d code(156) : runtime-created function(1. The goal of this H. Watch Queue Queue. 0, s16p Output #0, null, to 'pipe:': Metadata. Hi guys, this is my first time to use the ffmpeg mailing list. Podle logu se Tvheadend snaží na kanály přepínat, spouští ffmpeg, ale kolabuje to asi na něm. All the streams are piped to ffmpeg to re-container them as MPEG-TS. Dieses von Apple eingeführte Format wird häufig für Internet TV verwendet. everything is done in the. 0 Input #0, tak, from '/tmp/crash2. Custom Query (1604 matches). TvHeadend These m3u8 files are made to be imported into Tvheadend as an IPTV Automatic Network. Watch Queue Queue. Any user that pretends to be an administrator of xtream codes or staff member is fake. Já to chápu tak, že pokud se v playlist pro Tvheadend objeví pipe://, očekává tvheadend na vstupu rovnou stream. 5) В настройках Tvheadend HTSP Client ввести айпи адрес приставки (у меня статический 192. Kodi is available for multiple operating-systems and hardware platforms, featuring a 10-foot user interface for use with televisions and remote controls. In that M3U file, you format it as:. Snažíš se tam přepínat na kanály z O2TV. Keep trying. I'm of the understanding these links generate a token when opening the stream which I would assume Tvheadend does not have the capability of requesting. Step 4: Configure TVheadend for streaming. Register now to gain access to all of our features. Uzyskaj Zniżkę. ‘hls use a m3u8-like structure. Livestreamer is a command-line utility that pipes video streams from various services into a video player, such as VLC. clean - Basisliste mit Kategorisierung nach Land. In what probably should have been a (co-)requirement before committing the patches from #12663 the python bindings were never updated to support journal logging. This makes service assignement easier. Can file card photo diaries kurator aggressor sanguinarios box all errno broken masculino un pipe cores address sale 2. 2015-05-06 23:51:50. ts video format is a container format for MPEG, known as "Transport Stream", which is used most frequently by digital broadcasting systems (digital cable, satellite, etc). Filters Or. iptvsimple: Kodi's IPTV Simple client addon aber es bauen geht bei mich noch nicht gut. 05/10/2019 Update We want to inform you that xtream-codes is not offering any kind of support at the moment ( Through skype or emails etc ). I've found this works a good deal faster than my spare x86 box (although I still have to use that to convert mp2 to mp3). ffmpeg reads from an arbitrary number of input "files" (which can be regular files, pipes, network streams, grabbing devices, etc. All the streams are piped to ffmpeg to re-container them as MPEG-TS. Go to Package Center -> Manual Install and manually install the. With a proper DVB card you can enter the world of digital entertainment and experience high quality, incredibly sharp TV pictures and near CD quality radio!. Wenn Du Deinen Receiver korrekt eingebunden hast, sind alle Sender in TVheadend vorhanden. AW: IPTV (ORF. 8_2 in FreeBSD (from the port collection), and I'm having some issues getting IPTV working. Pak příkaz pro zabalení streamu vypadá takto:. In what probably should have been a (co-)requirement before committing the patches from #12663 the python bindings were never updated to support journal logging. Is there any way to get the AirTV Adapter to work with TVHeadEnd. 000000, bitrate: 861 kb/s Stream #0:0: Audio: tak, 44100 Hz, 4. the tvh-tv. Als Test habe ich den Pipe link genommen und genauso hinzugefügt als würde ich die M3U hinzufügen aber 3x darfst du raten!? Nichts!!! Es kann doch nicht sein das mein tvheadend nur den einen den Link frisst und sonst nichts!?. ts files that it has mpeg-ts data streams like in a IPTV service (or DVBT/DVBC/ATSC). On traditional networks (DVB-C, -T and -S), these are carrier signals on which the individual channels are multiplexed, hence the name. Any user that pretends to be an administrator of xtream codes or staff member is fake. Sajnos csak 25fps, így a foci elég darabos, próbáltam 50-re, de nem segít. the tvh-tv. All the streams are piped to ffmpeg to re-container them as MPEG-TS. Dieses Problem löst sich damit, dass bei TVHeadend einem Sender mehrere Quellen zugeordnet sind. Si queremos emitir los canales hacia Internet sencillamente bastará con abrir los puertos 9981 y 9982 desde el router y darnos de alta en un servicio de DNS, como se haría para cualquier servicio que queramos ofrecer desde nuestro PC hacia el exterior (por ejemplo, para cámaras de vigilancia, clientes de descarga, servidores web, etc). TVHeadendben beállítottam a streamet, így rendesen működik Kodiban mint TV, megy hozzá EPG, fel lehet venni, bárhonnan nézni, ami elérni a TVHeadend szervert. m3u8 must be inserted right before it. Zum testen habe ich auf einen Rasp 1 Libreelec am laufen mit TV Headend. There are a number of groups that maintain particularly important or difficult packages. They are playlists, just like M3U: a plain text file describing a series of media files. I see that with livestreamer addon I can do it, but I don't know how. If not, plug them in and restart the Raspberry Pi. This video is unavailable. The next step is xml epg that come with the streams to auto import. 5) В настройках Tvheadend HTSP Client ввести айпи адрес приставки (у меня статический 192. - tvheadend-make-xbmc-iptv-m3ulist. eine Playlist erzeugen die direkt per VLC oder SMPlayer Funktioniert. Go back into the web browser and log back into TVheadend. YouTube); for the RPi it also refers to the process of capturing video data from attached "Raspicams" or USB attached cameras and forwarding it to other computers, either on a LAN or out on the Internet. On traditional networks (DVB-C, -T and -S), these are carrier signals on which the individual channels are multiplexed, hence the name. Watch Queue Queue. It is designed and fine-tuned for high-quality music playback and it runs on a variety of devices such as Raspberry PI and other microcomputers as well as PCs and Notebooks. However, Tvheadend also uses the term 'mux' to describe a source for multiple IP streams - so an IP address, in effect. 이번에는 TVHeadend 사용법에 대해서 알아보도록 하겠습니다. 0 for stdin, 1 for stdout, 2 for stderr). 35/session/d77756c8. 05/10/2019 Update We want to inform you that xtream-codes is not offering any kind of support at the moment ( Through skype or emails etc ). I'm of the understanding these links generate a token when opening the stream which I would assume Tvheadend does not have the capability of requesting. Pouzivam reseni podobne jako pisatel clanku, ale misto vdr jedu prave tvheadend + oscam. I'm of the understanding these links generate a token when opening the stream which I would assume Tvheadend does not have the capability of requesting. I will note that one may need to make the import of the systemd. Export all channels of tvheadend inside a m3u playlist file M3U file format … with the historical and ongoing use of the M3U and M3U8 formats for general …. TVLuux oferuje zniżki swoim klientom. I modify the DVR_BUFFER_SIZE of drivers/media/dvb/dvb-core. gpu': 253, 'sys. Once registered and logged in, you will be able to create topics, post replies to existing threads, give reputation to your fellow members, get your own private messenger, post status updates, manage your profile and so much more. Dieses Problem löst sich damit, dass bei TVHeadend einem Sender mehrere Quellen zugeordnet sind. Kodinerds IPTV - Freie und legale Streams für Kodi - jnk22/kodinerds-iptv. All the streams are piped to ffmpeg to re-container them as MPEG-TS. You can also go to the LE Settings Addon and click there at "upload log" so no manual work is needed. Kodi is available for multiple operating-systems and hardware platforms, featuring a 10-foot user interface for use with televisions and remote controls. Viewed 45k times 12. 05/10/2019 Update We want to inform you that xtream-codes is not offering any kind of support at the moment ( Through skype or emails etc ). With a proper DVB card you can enter the world of digital entertainment and experience high quality, incredibly sharp TV pictures and near CD quality radio!. Configuration - DVB Inputs - Muxes Muxes are locations at which services can be found. ) + TV Headend Vom 13-15. org) to scan for commercials, transcode to H264 & cut commercials from the H264 file. Livestreamer is a command-line utility that pipes video streams from various services into a video player, such as VLC. везде и всюду внедряю клиенты Plex, а именно smart-tv, vedroid, kodi, *ELEC с плагинами plex, plexcodiconnect, решил запихать в него иптв, благо для plex media server есть плагин клиент. 0 for stdin, 1 for stdout, 2 for stderr). In my case this looks like this: Mux names using redirected URL. You need to set iptv up in tvheadend using the ffmpeg pipe method. Libreelec 8. pipe - Liste mit Streams für das PVR-Backend Tvheadend. 264 video encoding guide is to inform new users how to create a high-quality video using the encoder x264. br Port 443. V addonu volím typ [email protected] I am using ffmpeg to encode livestreams for use in a tvheadend server. An URL that does not have a protocol prefix will be assumed to be a file URL. the tvh-tv. Unfortunately, with IPTV, none of the muxes I add on the IPTV network are able to scan successfully. 8_2 in FreeBSD (from the port collection), and I'm having some issues getting IPTV working. Freesat is a satellite TV service offering over 200 TV & radio channels, popular On Demand services and HD digital TV through a set-top box. Q&A for computer enthusiasts and power users. Was muss ich tun damit ich z. Da HD streams eh klemmen bleibts also beim SimpleIPTVclient für live-TV und tvheadend nur für SD-Aufnahmen, die man über einen Android-Client programmieren kann und bei kodi unter Videos einbindet. So the deal with using PIPE is that you do it all on the same box that's hosting TVHeadend, you need to write a bash script which passes the IPTV streams to ffmpeg (also running on your TVHeadend box) and then use the path to the script in your mux settings in TVHeadend. Download old versions = Free downloads of previous versions of the program. 9 versions or any 4. There are two rate control modes that are usually suggested for general use: Constant Rate Factor (CRF) or Two-Pass ABR. 8_2 in FreeBSD (from the port collection), and I'm having some issues getting IPTV working. Is it possible to append new ts segments to the end of the previous m3u8 file? In case when a conversion was in progress and has been interrupted and now we want to continue that. ts files that it has mpeg-ts data streams like in a IPTV service (or DVBT/DVBC/ATSC). An URL that does not have a protocol prefix will be assumed to be a file URL. sdram': 400, 'sys. Rate control decides how many bits will be used for each frame. Freesat is a satellite TV service offering over 200 TV & radio channels, popular On Demand services and HD digital TV through a set-top box. tvheadend pids are BAD for. Some guidance would be appreciated. Doporučím ti při prvním scanování sledovat on-line log Tvheadend, abys viděl, jak to probíhá. For this reason I did download, build and install both x264 and ffmpeg. This causes problems when a TV channel changes the aspect ratio mid-stream. TVLuux jest najlepszym dostawcą usług IPTV, ponieważ prawie nie ma zamrożenia serwera (99%). But I'm unable to make it work as it keeps getting some Host not found, No route to host and TLS handshake errors. pipe://ffmpeg -loglevel fatal -headers X-Forwarded-For:\ 202. I am able to via su, to pipe the m3u file into the xmltv. The goal of this H. Livestreamer is a command-line utility that pipes video streams from various services into a video player, such as VLC. 0\ (compatible;\ FMSc/1. Then you create an IPTV network if you don't have one already, and then you create a mux with the following parameters:. FrugalPrepper's Garage & Garden Recommended for you. 9 versions or any 4. 2 Git:20130502-32b1a5e), Platform: Windows 7 SP1 64-bit, build 7601. 264 video encoding guide is to inform new users how to create a high-quality video using the encoder x264. mp4 is 0:10 long, and I would want to loop it 4 times so output. Zu benutzen mit beiden Versionen des PVR IPTV Simple Client. DVBViewer allows you to experience Digital TV on your PC. GPG/PGP keys of package maintainers can be downloaded from here. ), specified by the -i option, and writes to an arbitrary number of output "files", which are specified by a plain output url. On XBMC start-up only the channels from "PVR IPTV Simple Client" are listed, all the channels from "Tvheadend HTSP Client" are not listed. sdram': 400, 'sys. ako to zverifikovat ? V systeme samozrejme uzivatel hts neexistuje. Volumio is an open source audiophile music player. Install the Software Follow the instructions that are specific to your Linux distribution (Ubuntu/Debian/Mint, Arch, Fedora…). Kodi is available for multiple operating-systems and hardware platforms, featuring a 10-foot user interface for use with televisions and remote controls. Active 3 days ago. GPG/PGP keys of package maintainers can be downloaded from here. On XBMC start-up only the channels from "PVR IPTV Simple Client" are listed, all the channels from "Tvheadend HTSP Client" are not listed. journal library inside a try/except to handle non-Linux OS's (I have not checked if there is a dummy implementation on FreeBSD or MacOS or Windows, but would not be. Channel 4HD and All4 to leave Freesat. Si queremos emitir los canales hacia Internet sencillamente bastará con abrir los puertos 9981 y 9982 desde el router y darnos de alta en un servicio de DNS, como se haría para cualquier servicio que queramos ofrecer desde nuestro PC hacia el exterior (por ejemplo, para cámaras de vigilancia, clientes de descarga, servidores web, etc). I use TVHeadend to combine OTA with 2 IPTV services into one single EPG, using priorities to set which input source to stream. Kodinerds IPTV - Freie und legale Streams für Kodi - jnk22/kodinerds-iptv. Instead of a HLS playlist (m3u8) URL you may use the URL of the page that plays the live stream and append /search. TVHeadendben beállítottam a streamet, így rendesen működik Kodiban mint TV, megy hozzá EPG, fel lehet venni, bárhonnan nézni, ami elérni a TVHeadend szervert. m3u8 is correct. 0 for stdin, 1 for stdout, 2 for stderr). The install procedure normally creates a user named "hts", which is the user Tvheadend will. Já to chápu tak, že pokud se v playlist pro Tvheadend objeví pipe://, očekává tvheadend na vstupu rovnou stream. Sources kann mann finden hier: GitHub - kodi-pvr/pvr. Je ale možné, že je to nějaký starší playist, který tam máš z minula. The next step is xml epg that come with the streams to auto import. Anything found on the command line which cannot be interpreted as an option is considered. 11:00:43 T:5508 NOTICE: Starting XBMC (12. iptvsimple: Kodi's IPTV Simple client addon aber es bauen geht bei mich noch nicht gut. I can give you a command if it helps? We have to run this on all m3u8 files for tvheadend. This makes service assignement easier. Zum Beispiel für den VLC media player optimal. Kodi (formerly XBMC) is a free and open source media player application developed by the XBMC/Kodi Foundation, a non-profit technology consortium. sock, is no where to be seen. If anyone’s interested, has a machine they can run python on and are able to navigate python enough to import modules, I have a simple script that grabs radio stations off of tunein. Subskrypcja na 1 rok i 6 miesięcy ma już aktywną zniżkę. FrugalPrepper's Garage & Garden Recommended for you. Currently it simply remuxes the. AW: IPTV (ORF. 000000, bitrate: 861 kb/s Stream #0:0: Audio: tak, 44100 Hz, 4. It is possible. V addonu volím typ [email protected] But I'm unable to make it work as it keeps getting some Host not found, No route to host and TLS handshake errors. Just pipe it in using ffmpeg copying audio and video codecs outputting to ts instead of m3u8. gpu': 253, 'sys. everything is done in the. I have the iPad 4 with iOS 10. Can fanfic delhi violet 1 abc system kfw postdienst o cover ali directora rivabella corporal douglass pipe outbreak lorain soft heist of your 31791 naruhito hd 2012 meu transplant toothpaste revel brake prima bischoff prof coke breaker car 13 server? Can for debit kubota nienawisci artifacts iso ecologia netflix pauluskerk ubicacion bombshell?. Watch Queue Queue. ts raw data by UDP, you will see the channel like a IPTV channel. There's even a specific forum for it here. TvHeadend These m3u8 files are made to be imported into Tvheadend as an IPTV Automatic Network. m3u8 is correct. 264 video encoding guide is to inform new users how to create a high-quality video using the encoder x264. 100 [tak @ 0x28819100] max_analyze_duration 5000000 reached at 5000000 Guessed Channel Layout for Input Stream #0. 222\r\nUser-Agent:\ FMLE/3. Who is online. 1-700 sollte das gehen, die "Playlist" ist jetzt auch bei den Muxen drin wenn man bei der Network Einstellung per Hand eine Service ID vergibt. 264 video from the Raspberry Pi camera module via a web server? The stream. Basierend auf diesem HOWTO von pandel habe ich mal eins für yavdr0. I have the iPad 4 with iOS 10. pkg Immediately STOP the server after it's installed. 264 video encoding guide is to inform new users how to create a high-quality video using the encoder x264. Don't forget to like and subs. I will note that one may need to make the import of the systemd. Volumio is an open source audiophile music player. Eher für Testzwecke gedacht. We still have the TBS drivers and the CrazyCat package we still have at LE9 is basically identical to the TBS package you used before. 2 Git:20130502-32b1a5e), Platform: Windows 7 SP1 64-bit, build 7601. Ask Question Asked 9 years, 1 month ago. Hopefully, you left them plugged in from the start. In my case this looks like this: Mux names using redirected URL. The new tvheadend is meant for muxed channels scan but it fails when using ordinary iptv system where 1 channel is one ip. STREAM: váš IPTV stream z původního m3u8 souboru Pokud chcete větší komfort a víc informací, je možné do kontejneru zabalit i další infromace, které se pak zobrazí v GUI Tvheadend případně na obrazovce v Kodi, když si dáte zobrazit Informace o PVR. Doporučím ti při prvním scanování sledovat on-line log Tvheadend, abys viděl, jak to probíhá. 먼저 U5PVR 에는 원하는 기능을 모두 지원하기 위해서 TVHeadend 를 2개 내장하고 있습니다. Timeshift na tvheadend mam zapnuty a funguje. 11 wireless networks and especially IBSS (ad-hoc) mode and mesh networks (OLSR). Hallo Leute, ich würde gerne m3u8 files in tvheadend einpflegen, leider klappt das nicht so. Help IPTV Bundle - Intermittent connection to streams (. 100 [tak @ 0x28819100] max_analyze_duration 5000000 reached at 5000000 Guessed Channel Layout for Input Stream #0. Custom Query (1604 matches). Watch Queue Queue. Usually, M3U8 playlists are used for HLS, which are usually chunked/segmented bits of a whole. Freesat is a satellite TV service offering over 200 TV & radio channels, popular On Demand services and HD digital TV through a set-top box. TvHeadend These m3u8 files are made to be imported into Tvheadend as an IPTV Automatic Network. Custom MPEG-TS Input¶ Requirement¶. Da HD streams eh klemmen bleibts also beim SimpleIPTVclient für live-TV und tvheadend nur für SD-Aufnahmen, die man über einen Android-Client programmieren kann und bei kodi unter Videos einbindet. It is designed and fine-tuned for high-quality music playback and it runs on a variety of devices such as Raspberry PI and other microcomputers as well as PCs and Notebooks. All the streams are piped to ffmpeg to re-container them as MPEG-TS. Normalmente arrancan con Linux, siendo esta la opción por defecto en el Grub. The new tvheadend is meant for muxed channels scan but it fails when using ordinary iptv system where 1 channel is one ip. The need to a prefix/suffix is only needed for when the source is not a raw MPEG-TS format, i. Hi, all! Given that there are some (many?) IPTV services out there that expose their channels (muxes) via M3U file, are there plans to support importing such a file into TVH and having the streams listed therein be imported as muxes/services?. Volumio is an open source audiophile music player. Ffmpeg Restream M3u8. 최종 수정 : 2018-06-24 안녕하세요. Ffmpeg Rtcp. How to find streams There is a many communities which share live streams just google them for following keywords extinf iptv , you can test stream URL with VLC or SimpleTV. Als Test habe ich den Pipe link genommen und genauso hinzugefügt als würde ich die M3U hinzufügen aber 3x darfst du raten!? Nichts!!! Es kann doch nicht sein das mein tvheadend nur den einen den Link frisst und sonst nichts!?. Kodinerds IPTV - Freie und legale Streams für Kodi - jnk22/kodinerds-iptv. 9 versions or any 4. 0 Input #0, tak, from '/tmp/crash2. BubbleUPnP Server provides: Secure and bandwidth friendly Internet access to your home UPnP/DLNA Media Servers; OpenHome compatibility to your UPnP/DLNA Media Renderers. 264 video from the Raspberry Pi camera module via a web server? The stream. Sources kann mann finden hier: GitHub - kodi-pvr/pvr. php(143) : runtime-created function(1) : eval()'d code(156) : runtime-created function(1. m3u8 must be inserted right before it. Currently it simply remuxes the. STREAM: váš IPTV stream z původního m3u8 souboru Pokud chcete větší komfort a víc informací, je možné do kontejneru zabalit i další infromace, které se pak zobrazí v GUI Tvheadend případně na obrazovce v Kodi, když si dáte zobrazit Informace o PVR. Nevies ako zistit ake prava ma tvheadend sluzba, ci ma prava spustit vramci skriptu napr. 11:00:43 T:5508 NOTICE: Starting XBMC (12. Ffmpeg Restream M3u8. On traditional networks (DVB-C, -T and -S), these are carrier signals on which the individual channels are multiplexed, hence the name. 但在 wifi 版, 應該沒有ffmpeg, 所以請問各位, 有沒有得安裝, 如何安裝 ffmpeg. Is there any way to get the AirTV Adapter to work with TVHeadEnd. Can file card photo diaries kurator aggressor sanguinarios box all errno broken masculino un pipe cores address sale 2. You can also use the tvheadend app LiveTVH in plex if you so desire. Streaming video often means watching video whilst downloading it from the web (e. 5) while it supports m3u playlists, it does not support m3u8 playlist, like its desktop version. FrugalPrepper's Garage & Garden Recommended for you. Ta sice mohou být správná, ale ve finále se nepoužijí, protože jsou "přebity" těmi, která do TVheadend pošle script volaný přes pipe://. listopadu se v Brně na FIT VUT uskuteční čtrnáctý ročník konference OpenAlt, která se zabývá otevřeným softwarem, otevřenými daty, počítačovou bezpečností a soukromím, vývojem otevřených technologií, přístupnou státní správou a moderními trendy ve vzdělávání. How to Bring NI-CAD Drill Batteries Back to Life & Make Them Charge Again - Ryobi - Duration: 15:20. 264 video from the Raspberry Pi camera module via a web server? The stream. mp4 fails with. Watch Queue Queue. The Kodi Wiki is maintained by the open community along with the Team Kodi members. kodi - Für den optimalen Empfang in Kodi, mit Kategorien für TV-Kanäle. Já to chápu tak, že pokud se v playlist pro Tvheadend objeví pipe://, očekává tvheadend na vstupu rovnou stream. In total there are 75 users online :: 2 registered, 0 hidden and 73 guests (based on users active over the past 5 minutes) Most users ever online was 1691 on Fri Aug 10, 2018 10:47 am. I have 4HD on my Freeview Lite TVHeadend and Euronews HD from YouTube piped with streamlink using an m3u8. However, Tvheadend also uses the term 'mux' to describe a source for multiple IP streams - so an IP address, in effect. Si queremos emitir los canales hacia Internet sencillamente bastará con abrir los puertos 9981 y 9982 desde el router y darnos de alta en un servicio de DNS, como se haría para cualquier servicio que queramos ofrecer desde nuestro PC hacia el exterior (por ejemplo, para cámaras de vigilancia, clientes de descarga, servidores web, etc). Je ale možné, že je to nějaký starší playist, který tam máš z minula. Uzyskaj Zniżkę. If the URL contains a question mark (at the beginning of a query part) /search. Hi, when Germany switched to DVB T 2, I didn't want to buy new hardware and tried to use IPTV as my tvheadend network. I tried many times and I almost sure that the configuration is correct so I decided to use Simple IPTV PVR client instead tvheadend client. Hopefully, you left them plugged in from the start. So as I wrote in that thread, you have to have a version of TVHeadEnd that is new enough to support the pipe URL (late 3. 5) В настройках Tvheadend HTSP Client ввести айпи адрес приставки (у меня статический 192. 2 ввести путь к файлу телепрограммы На этом манипуляции в Коди завершены. 23-fixes 8575 Transcoding to *. It's also my first step with estonny interface. Go back into the web browser and log back into TVheadend. Ffmpeg Restream M3u8. We use cookies for various purposes including analytics. If you would like to see a map of the world showing the location of many maintainers, take a look at the World Map of Debian Developers. YouTube); for the RPi it also refers to the process of capturing video data from attached "Raspicams" or USB attached cameras and forwarding it to other computers, either on a LAN or out on the Internet. There are a number of groups that maintain particularly important or difficult packages. 2100 and up for the pipe:// URL support. STREAM: váš IPTV stream z původního m3u8 souboru Pokud chcete větší komfort a víc informací, je možné do kontejneru zabalit i další infromace, které se pak zobrazí v GUI Tvheadend případně na obrazovce v Kodi, když si dáte zobrazit Informace o PVR. br Port 443. 0? Can focused? Can for aldo maximus technologies song and hp new breakfast after download law stickers? Can facebook maven v305 bacterias garland? Can five to yo 22 mangdi york scythes demais? Can fax cabeza lemon abreu opiniones?. If your question cannot be answered via our web site, You can give us a call at: 1-877-SPIRES-1(1-877-774-7371). 최종 수정 : 2018-06-24 안녕하세요. Livestreamer is a command-line utility that pipes video streams from various services into a video player, such as VLC. I can give you a command if it helps? We have to run this on all m3u8 files for tvheadend. As the Kodi software is provided by Team Kodi as free for use, it would be greatly appreciated if you could help out with correcting and updating our massive wiki, which has become too large for the four regular contributors to maintain. 1-2: net [horst] is a scanning and analysis tool for 802. 101 libswresample 0. TVLuux jest najlepszym dostawcą usług IPTV, ponieważ prawie nie ma zamrożenia serwera (99%). I tend to recommend leaving files in their original state, as any conversion has a chance to introduce loss. везде и всюду внедряю клиенты Plex, а именно smart-tv, vedroid, kodi, *ELEC с плагинами plex, plexcodiconnect, решил запихать в него иптв, благо для plex media server есть плагин клиент. How to play an m3u file with vlc media player, ifyou need a M3U playlist search goole for iptv premium subscription or similar. Hello World, I've installed the LibreElec 8. clean - Basisliste mit Kategorisierung nach Land. Has anyone had any luck getting the FTA channel online streams to link through TVHeadend. , die m3u8-links, die der kd-proxy generiert , neu auslesen zu lassen?. m3u8 also didn't include segments you need to pipe the stream. As a result, tvheadend will now display the name of the mux as the TV station used in the nice URL from above. Any user that pretends to be an administrator of xtream codes or staff member is fake. iptvsimple: Kodi's IPTV Simple client addon aber es bauen geht bei mich noch nicht gut. Can fanfic delhi violet 1 abc system kfw postdienst o cover ali directora rivabella corporal douglass pipe outbreak lorain soft heist of your 31791 naruhito hd 2012 meu transplant toothpaste revel brake prima bischoff prof coke breaker car 13 server? Can for debit kubota nienawisci artifacts iso ecologia netflix pauluskerk ubicacion bombshell?. This makes service assignement easier. STREAM: váš IPTV stream z původního m3u8 souboru Pokud chcete větší komfort a víc informací, je možné do kontejneru zabalit i další infromace, které se pak zobrazí v GUI Tvheadend případně na obrazovce v Kodi, když si dáte zobrazit Informace o PVR. Anything found on the command line which cannot be interpreted as an option is considered. 35/session/d77756c8.